#TITLE:Death Reveals;
#SUBTITLE:;
#ARTIST:The Berzerker;
#TITLETRANSLIT:;
#SUBTITLETRANSLIT:;
#ARTISTTRANSLIT:;
#CREDIT:;
#BANNER:Deathbn.jpg;
#BACKGROUND:Deathbg.jpg;
#LYRICSPATH:;
#CDTITLE:!mm989cdtitle.png;
#MUSIC:death reveals .mp3;
#OFFSET:-2.987;
#SAMPLESTART:2.920;
#SAMPLELENGTH:12.000;
#SELECTABLE:YES;
#BPMS:0.000=296.021;
#STOPS:;
#BGCHANGES:;
// cache tags:
#FIRSTBEAT:10.000;
#LASTBEAT:364.000;
#SONGFILENAME:Songs/Music V.I.P ^_^/Death Reveals/dr.sm;
#HASMUSIC:1;
#HASBANNER:1;
#MUSICLENGTH:77.322;
// end cache tags

//---------------dance-single - Blank----------------
#NOTES:
     dance-single:
     Blank:
     Beginner:
     13:
     1.000,1.000,1.000,0.000,1.000,829.000,144.000,0.000,0.000,16.000:

0000
0000
0000
0000
,
0000
0000
0000
0000
,
0000
0000
1010
0101
,
1001
1100
0011
1100
,
0011
1010
0011
0101
,
1010
0110
0101
0011
,
0100
0010
0100
0010
0100
0010
0100
0010
1100
0000
0000
0000
0011
0000
0000
0000
,
0110
1001
1100
1010
,
0110
0011
1001
0011
,
1100
0000
0000
0000
1001
0000
0000
0000
0001
0010
0001
0010
0001
0000
0000
0000
,
0011
1100
0110
0011
,
1100
1001
0011
1010
,
0101
1001
0110
0011
,
1100
0000
0000
0000
1001
0000
0000
0000
1100
1000
0100
1000
0100
1000
0100
1000
,
0100
1000
0100
1000
0100
1000
0100
1000
0100
0000
0000
0000
0011
0000
0000
0000
,
1001
0011
1100
0110
,
0011
1100
0011
1001
,
1100
0000
0011
0000
1110
0000
0000
0111
,
0000
0000
1010
0110
,
1001
0011
1100
0110
,
0011
1001
1100
0011
,
1100
0110
0011
1001
,
0000
0000
0110
1100
,
0011
1100
0000
0000
,
0000
0000
1001
0110
,
1001
1100
0000
0000
,
1000
0001
1000
0001
1000
0001
1000
0001
1000
0001
0010
0001
0010
0001
0010
0001
,
0010
0001
0010
0001
0010
0001
0010
0001
0010
0100
0010
0100
0010
0100
0010
0100
,
0010
0100
0010
0100
0010
0100
0010
0100
0100
0001
0100
0001
0100
0001
0100
0001
,
0100
0001
0100
0001
0100
0001
0100
0001
0100
0010
1000
0010
1000
0010
1000
0010
,
1000
0010
1000
0010
1000
0010
1000
0010
1000
0000
0000
0000
0100
0010
0100
0010
,
0100
0010
0100
0010
0100
0010
0100
0010
0100
0001
0010
0001
0010
0001
0010
0001
,
0010
0001
0010
0001
0010
0001
0010
0001
0010
1000
0100
1000
0100
1000
0100
1000
,
0100
1000
0100
1000
0100
1000
0100
1000
0100
0000
0000
0000
1110
0000
0000
0000
,
0000
0000
0111
0000
0000
0000
0001
1000
0001
1000
0001
1000
0001
1000
0001
1000
,
0001
1000
0001
1000
0001
1000
0001
1000
0001
0100
0010
0100
0010
0100
0010
0100
,
0010
0100
0010
0100
0010
0100
0010
0100
0010
1000
0010
1000
0010
1000
0010
1000
,
0010
1000
0010
1000
0010
1000
0010
1000
0010
0001
0100
0001
0100
0001
0100
0001
,
0100
0001
0100
0001
0100
0001
0100
0001
0100
0010
0001
0010
0001
0010
0001
0010
,
0001
0010
0001
0010
0001
0010
0001
0010
0001
0100
0001
0100
0001
0100
0001
0100
,
0001
0100
0001
0100
0001
0100
0001
0100
0001
1000
0100
1000
0100
1000
0100
1000
,
0100
1000
0100
1000
0100
1000
0100
1000
0100
0000
0000
0000
1011
0000
0000
0000
,
0000
0000
0000
0000
1101
0000
0000
0000
0000
0000
0000
0000
0001
0010
0100
1000
0000
0000
0000
0000
0000
0000
0000
0000
1000
0000
0010
0000
0100
0000
1000
0000
,
0100
0010
0100
0001
1000
0010
0100
0001
0010
0001
0100
1000
0001
0000
0001
0010
,
1000
0100
0010
0100
1000
0001
0100
0010
1000
0100
0010
0001
0010
0100
1000
0010
,
0100
0001
1000
0010
0100
0001
0100
0010
0001
0000
0000
0000
0010
0000
0000
0000
,
0100
0000
0000
0000
1000
0000
0000
0000
1000
0100
1000
0010
0100
0001
0010
0100
,
0001
1000
0010
0100
0010
0001
0100
0010
1000
0000
0000
0000
0001
0000
0000
0000
,
0010
0000
0000
0000
0100
0000
0000
0000
1000
0100
0010
0001
0100
0010
0100
1000
,
0010
0100
0001
1000
0010
0100
0010
1000
0001
0000
0000
0000
1000
0000
0000
0000
,
0100
0000
0000
0000
0010
0000
0000
0010
0001
0010
0001
0010
0001
0010
0001
0010
,
0001
0010
0001
0010
0001
0010
0001
0010
0001
1000
0100
1000
0100
1000
0100
1000
,
0100
1000
0100
1000
0100
1000
0100
1000
0100
0001
0100
0001
0100
0001
0100
0001
,
0100
0001
0100
0001
0100
0001
0100
0001
0100
0010
1000
0010
1000
0010
1000
0010
,
1000
0010
1000
0010
1000
0010
1000
0010
1000
0100
0001
0100
0001
0100
0001
0100
,
0001
0100
0001
0100
0001
0100
0001
0100
0001
0010
0100
0010
0100
0010
0100
0010
,
0100
0010
0100
0010
0100
0010
0100
0010
0100
0001
1000
0001
1000
0001
1000
0001
,
1000
0001
1000
0001
1000
0001
1000
0001
1000
0000
0000
0000
1101
0000
0000
0000
,
0000
0000
0111
0000
0000
0000
0000
0000
1000
0100
0010
0001
0100
0010
1000
0001
,
0100
0010
1000
0001
0100
0010
1000
0001
0100
0010
1000
0100
1000
0001
0010
0001
,
0100
1000
0000
0010
0100
0000
0001
0100
1000
0010
0100
0001
1000
0010
0100
0001
,
1000
0001
1000
0010
0100
0001
1000
0010
0100
1000
0010
0001
0100
0010
1000
0100
,
0010
0001
0010
0100
1000
0010
0100
0001
1000
0010
0100
0001
1000
0010
0001
0100
,
0010
1000
0100
0010
0001
0010
0100
1000
0010
0100
0001
1000
0010
0100
0001
1000
,
0010
0100
0001
0010
0100
1000
0010
0100
0001
1000
0010
0100
0001
1000
0010
0100
,
0001
1000
0100
0010
0001
1000
0100
0010
1000
0000
0000
0000
1011
0000
0000
0000
,
0000
0000
1110
0000
0000
0000
0000
0000
1000
0100
1000
0100
1000
0100
1000
0100
,
1000
0100
1000
0100
1000
0100
1000
0100
1000
0010
0100
0010
0100
0010
0100
0010
,
0100
0010
0100
0010
0100
0010
0100
0010
0100
0001
0010
0001
0010
0001
0010
0001
,
0010
0001
0010
0001
0010
0001
0010
0001
0010
0000
0000
0000
0100
0000
0000
0000
,
0010
0000
0000
0000
0001
0000
0000
0000
0010
1000
0010
1000
0010
1000
0010
1000
,
0010
1000
0010
1000
0010
1000
0010
1000
0010
0000
0000
0000
0100
0000
0000
0000
,
0001
0000
0000
0000
1000
0000
0000
0000
0001
1000
0001
1000
0001
1000
0001
1000
,
0001
1000
0001
1000
0001
1000
0001
1000
0001
0000
0000
0000
0001
0000
0000
0000
,
0010
0100
0010
0100
0010
0100
0010
0100
0010
0000
0000
0000
1001
0000
0000
0000
,
0011
1100
0110
1001
,
0110
0000
0000
0000
0100
1000
0100
1000
0101
0000
0000
0000
1010
0000
0000
0000
,
0101
1001
0110
1100
,
0110
0011
0101
1001
,
0110
1001
0011
1100
,
1001
0110
0011
1100
,
0110
0000
1001
0000
0111
0000
0000
1110
,
0000
1001
0110
0011
,
1100
0110
1001
1100
,
0011
1100
1001
0110
,
0011
1100
0110
1001
,
0101
1010
0101
0110
,
1001
0110
1001
0110
,
0011
1100
0110
0011
,
0110
0000
1101
0000
0000
1011
0000
0000
,
0000
0000
0000
0000
0001
0010
0100
1000
0000
0000
1011
0000
0000
0000
0000
0000
,
1101
0000
0000
0000
;

//---------------dance-double - Blank----------------
#NOTES:
     dance-double:
     Blank:
     Beginner:
     13:
     1.000,1.000,1.000,0.000,1.000,829.000,131.000,0.000,0.000,9.000:



00000000
00000000
00000000
00000000
,
00000000
00000000
00000000
00000000
,
00000000
00000000
10100000
01010000
,
10010000
11000000
00110000
11000000
,
00110000
10100000
00110000
01010000
,
01010000
00110000
00101000
00011000
,
00100000
00010000
00100000
00010000
00100000
00010000
00100000
00010000
01100000
00000000
00000000
00000000
00011000
00000000
00000000
00000000
,
00110000
01001000
01100000
01010000
,
00110000
00011000
01001000
00011000
,
00110000
00000000
00000000
00000000
00100000
00000000
00000000
00000000
00000100
00001000
00000100
00001000
00000100
00000000
00000000
00000000
,
00001100
00110000
00011000
00001100
,
00110000
00100000
00001100
00101000
,
00010100
00100000
00011000
00001100
,
00011000
00000000
00000000
00000000
00010010
00000000
00000000
00000000
00011000
00010000
00001000
00010000
00001000
00010000
00001000
00010000
,
00001000
00010000
00001000
00010000
00001000
00010000
00001000
00010000
00001000
00000000
00000000
00000000
00000110
00000000
00000000
00000000
,
00010010
00000110
00011000
00001100
,
00000110
00011000
00000110
00010010
,
00001100
00000000
00000011
00000000
00001110
00000000
00000000
00000111
,
00000000
00000000
00001010
00000110
,
00001001
00000011
00001100
00000110
,
00000011
00001001
00001100
00000011
,
00011000
00001100
00000110
00010010
,
00000000
00000000
00001100
00011000
,
00000110
00011000
00000000
00000000
,
00000000
00000000
00010010
00001100
,
00100000
00110000
00000000
00000000
,
00100000
00000100
00100000
00000100
00100000
00000100
00100000
00000100
00100000
00000100
00001000
00000100
00001000
00000100
00001000
00000100
,
00001000
00000100
00001000
00000100
00001000
00000100
00001000
00000100
00001000
00010000
00001000
00010000
00001000
00010000
00001000
00010000
,
00001000
00010000
00001000
00010000
00001000
00010000
00001000
00010000
00010000
00000100
00010000
00000100
00010000
00000100
00010000
00000100
,
00100000
00001000
00100000
00001000
00100000
00001000
00100000
00001000
00100000
00010000
01000000
00010000
01000000
00010000
01000000
00010000
,
01000000
00010000
01000000
00010000
01000000
00010000
01000000
00010000
01000000
00000000
00000000
00000000
00100000
00010000
00100000
00010000
,
00100000
00010000
00100000
00010000
00100000
00010000
00100000
00010000
00100000
00001000
00010000
00001000
00010000
00001000
00010000
00001000
,
00010000
00001000
00010000
00001000
00010000
00001000
00010000
00001000
00010000
01000000
00100000
01000000
00100000
01000000
00100000
01000000
,
01000000
10000000
01000000
10000000
01000000
10000000
01000000
10000000
01000000
00000000
00000000
00000000
11100000
00000000
00000000
00000000
,
00000000
00000000
01110000
00000000
00000000
00000000
00010000
10000000
00010000
10000000
00010000
10000000
00010000
10000000
00010000
10000000
,
00010000
10000000
00010000
10000000
00010000
10000000
00010000
10000000
00010000
01000000
00100000
01000000
00100000
01000000
00100000
01000000
,
00100000
01000000
00100000
01000000
00100000
01000000
00100000
01000000
00100000
10000000
00100000
10000000
00100000
10000000
00100000
10000000
,
00010000
01000000
00010000
01000000
00010000
01000000
00010000
01000000
00010000
00001000
00100000
00001000
00100000
00001000
00100000
00001000
,
00100000
00001000
00100000
00001000
00100000
00001000
00100000
00001000
00100000
00010000
00001000
00010000
00001000
00010000
00001000
00010000
,
00001000
00010000
00001000
00010000
00001000
00010000
00001000
00010000
00001000
00100000
00001000
00100000
00001000
00100000
00001000
00100000
,
00001000
00100000
00001000
00100000
00001000
00100000
00001000
00100000
00001000
01000000
00100000
01000000
00100000
01000000
00100000
01000000
,
00010000
00100000
00010000
00100000
00010000
00100000
00010000
00100000
00010000
00000000
00000000
00000000
00100000
00000000
00000000
00000000
,
00000000
00000000
00000000
00000000
00100000
00000000
00000000
00000000
00000000
00000000
00000000
00000000
00000100
00001000
00010000
00100000
00000000
00000000
00000000
00000000
00000000
00000000
00000000
00000000
00100000
00000000
00001000
00000000
00010000
00000000
00100000
00000000
,
00010000
00001000
00010000
00000100
00100000
00001000
00010000
00000100
00001000
00000100
00010000
00100000
00000100
00000000
00000100
00001000
,
00100000
00010000
00001000
00010000
00100000
00000100
00010000
00001000
00100000
00010000
00001000
00000100
00001000
00010000
00100000
00001000
,
00001000
00000010
00010000
00000100
00001000
00000010
00001000
00000100
00000010
00000000
00000000
00000000
00000100
00000000
00000000
00000000
,
00001000
00000000
00000000
00000000
00010000
00000000
00000000
00000000
00010000
00001000
00010000
00000100
00001000
00000010
00000100
00001000
,
00000010
00010000
00000100
00001000
00000100
00000010
00001000
00000100
00010000
00000000
00000000
00000000
00000010
00000000
00000000
00000000
,
00000100
00000000
00000000
00000000
00001000
00000000
00000000
00000000
00010000
00001000
00000100
00000010
00001000
00000100
00001000
00010000
,
00000010
00000100
00000001
00001000
00000010
00000100
00000010
00001000
00000001
00000000
00000000
00000000
00001000
00000000
00000000
00000000
,
00000100
00000000
00000000
00000000
00000010
00000000
00000000
00000010
00000001
00000010
00000001
00000010
00000001
00000010
00000001
00000010
,
00000001
00000010
00000001
00000010
00000001
00000010
00000001
00000010
00000001
00001000
00000100
00001000
00000100
00001000
00000100
00001000
,
00000100
00001000
00000100
00001000
00000100
00001000
00000100
00001000
00000100
00000001
00000100
00000001
00000100
00000001
00000100
00000001
,
00001000
00000010
00001000
00000010
00001000
00000010
00001000
00000010
00001000
00000100
00010000
00000100
00010000
00000100
00010000
00000100
,
00010000
00000100
00010000
00000100
00010000
00000100
00010000
00000100
00010000
00001000
00000010
00001000
00000010
00001000
00000010
00001000
,
00000010
00001000
00000010
00001000
00000010
00001000
00000010
00001000
00000010
00000100
00001000
00000100
00001000
00000100
00001000
00000100
,
00001000
00000100
00001000
00000100
00001000
00000100
00001000
00000100
00001000
00000010
00010000
00000010
00010000
00000010
00010000
00000010
,
00100000
00000100
00100000
00000100
00100000
00000100
00100000
00000100
00100000
00000000
00000000
00000000
00100000
00000000
00000000
00000000
,
00000000
00000000
00011100
00000000
00000000
00000000
00000000
00000000
00100000
00010000
00001000
00000100
00010000
00001000
00100000
00000100
,
00010000
00001000
00100000
00000100
00010000
00001000
00100000
00000100
00010000
00001000
00100000
00010000
00100000
00000100
00001000
00000100
,
00010000
00100000
00000000
00001000
00010000
00000000
00000100
00010000
00100000
00001000
00010000
00000100
00100000
00001000
00010000
00000100
,
01000000
00001000
01000000
00010000
00100000
00001000
01000000
00010000
00100000
01000000
00010000
00001000
00100000
00010000
01000000
00100000
,
00010000
00001000
00010000
00100000
01000000
00010000
00100000
00001000
01000000
00010000
00100000
00001000
01000000
00010000
00001000
00100000
,
00010000
01000000
00100000
00010000
00001000
00010000
00100000
01000000
00010000
00100000
00001000
01000000
00010000
00100000
00001000
01000000
,
00010000
00100000
00001000
00010000
00100000
01000000
00010000
00100000
00001000
01000000
00010000
00100000
00001000
01000000
00010000
00100000
,
00010000
10000000
01000000
00100000
00010000
10000000
01000000
00100000
10000000
00000000
00000000
00000000
10110000
00000000
00000000
00000000
,
00000000
00000000
11100000
00000000
00000000
00000000
00000000
00000000
10000000
01000000
10000000
01000000
10000000
01000000
10000000
01000000
,
10000000
01000000
10000000
01000000
10000000
01000000
10000000
01000000
10000000
00100000
01000000
00100000
01000000
00100000
01000000
00100000
,
01000000
00100000
01000000
00100000
01000000
00100000
01000000
00100000
01000000
00010000
00100000
00010000
00100000
00010000
00100000
00010000
,
00010000
00001000
00010000
00001000
00010000
00001000
00010000
00001000
00010000
00000000
00000000
00000000
00100000
00000000
00000000
00000000
,
00010000
00000000
00000000
00000000
00001000
00000000
00000000
00000000
00010000
01000000
00010000
01000000
00010000
01000000
00010000
01000000
,
00010000
01000000
00010000
01000000
00010000
01000000
00010000
01000000
00010000
00000000
00000000
00000000
00100000
00000000
00000000
00000000
,
00001000
00000000
00000000
00000000
01000000
00000000
00000000
00000000
00001000
01000000
00001000
01000000
00001000
01000000
00001000
01000000
,
00000100
00100000
00000100
00100000
00000100
00100000
00000100
00100000
00000100
00000000
00000000
00000000
00000100
00000000
00000000
00000000
,
00001000
00010000
00001000
00010000
00001000
00010000
00001000
00010000
00001000
00000000
00000000
00000000
00100000
00000000
00000000
00000000
,
00001100
00110000
00011000
00100000
,
00011000
00000000
00000000
00000000
00010000
00100000
00010000
00100000
00010100
00000000
00000000
00000000
00101000
00000000
00000000
00000000
,
00001010
00010010
00001100
00011000
,
00001100
00000110
00001010
00010010
,
00001100
00010010
00000110
00011000
,
00010010
00001100
00000110
00011000
,
00000110
00000000
00001001
00000000
00000111
00000000
00000000
00001110
,
00000000
00001001
00000110
00000011
,
00001100
00000110
00001001
00001100
,
00000011
00001100
00001001
00000110
,
00000110
00011000
00001100
00010010
,
00001010
00010100
00001010
00001100
,
00010010
00001100
00010010
00001100
,
00000110
00011000
00001100
00000110
,
00011000
00000000
00100000
00000000
00000000
00100000
00000000
00000000
,
00000000
00000000
00000000
00000000
00000100
00001000
00010000
00100000
00000000
00000000
00100000
00000000
00000000
00000000
00000000
00000000
,
00100000
00000000
00000000
00000000
;
